Download our mobile app now. Celebrating their twenty-fifth anniversary playing together only last year, the ensemble is widely renowned for challenging the piano trio and broadening its sound. Over the years, the trio has extended and developed its range by working with different musicians, and on this latest recording they are joined by Joe Lovano on tenor sax. Published on Thu 14 Apr 2005 20.26 EDT. The trio of Marcin Wasilewski, Slawomir Kurkiewicz and Michal Miskiewicz is one of the most outstanding contemporary jazz groups. Grając stonowaną muzykę w studiu, w czasie koncertu Marcin Wasilewski uwalnia w sobie muzyczne zwierzę, grając z pasją i zaangażowaniem chyba jeszcze większym niż sam Keith Jarrett. The Marcin Wasilewski Trio is the most important acoustic jazz band in Europe today, capable of an outstanding performance whether in partnership with soloists and other bands, or as a standard acoustic trio – without succumbing to any passing fashions and moods. Marcin Wasilewski Trio Songs Videos Pictures Artist Radio . [citation needed]Anderlecht. Albums include January, Faithful, and Trio. Vashkar. Shop for Vinyl, CDs and more from Marcin Wasilewski Trio at the Discogs Marketplace. Spark of Life / Sudovian Dance 2. Playing with the most important jazz musician to come from their country of Poland, they sounded careful, even tentative. Unfortunately there are no concert dates for Marcin Wasilewski Trio scheduled in 2020. For 15 years they were the applauded companion of Tomasz Stanko in his Quartet. Explore releases from Marcin Wasilewski Trio at Discogs. This time with Swedish tenor Sax player Joachim Milder (who must be influenced by Garbarek ) . Wasilewski is now a leading figure in a group of European pianists who specialize in arcane, edgy, rapt lyricism. Marcin Wasilewski(1975年~)は、ポーランドのピアニスト。 1990年代初期からSimple Acoustic Trioのグループ名で活動を開始。「Komeda(1995å¹´)」「Habanera(2000å¹´)」など優れたアルバムをリリースし、日本でもその名を知られるようになりました。 PERFORMER "Marcin Wasilewski Trio" INDEX 01 00:00:00. about. Their friend and mentor trumpeter Tomasz Stańko has said, “In the entire history of Polish jazz we've never had a band … Marcin Wasilewski Trio Radio Plays Marcin Wasilewski Trio along with similar artists like: Egberto Gismonti, Chick Corea, Stefano Bollani, Nik Bartsch's Ronin … Related Artists. There is space here for both the outgoing and the reflective, for profound composition and in-the-moment creativity. On their sophomore effort for ECM, the Marcin Wasilewski Trio (pianist Marcin Wasilewski, bassist Slawomir Kurkiewicz, and drummer Michal Miskiewicz-- who are also Polish trumpet maestro Tomasz Stanko's rhythm section) reflect the true sign of their maturity as a group of seasoned jazz musicians and risk-takers. This particular trio helped produce such masterpieces as "Soul Of Things" and "Suspended Night" with Stanko. He was acquired by Belgian side Anderlecht in January 2007. (Think Bobo Stenson, Stefano Battaglia, Giovanni Guidi, Leszek Możdżer.) 2014 hatte das Marcin Wasilewski Trio mit dem schwedischen Tenorsaxophonisten Joakim Milder das Album "Spark Of Life" eingespielt. Marcin Wasilewski, Trio (ECM) John Fordham. Message in a Bottle 3. Stream ad-free with Amazon Music Unlimited on mobile, desktop, and tablet. Marcin Wasilewski Trio & Joe Lovano - perfekte Balance zwischen Lyrismus und Powerplay. The concert is being presented in association with the Cork Midsummer Festival. See photos, profile pictures and albums from Marcin Wasilewski Trio. Muzycy od wielu lat są ambasadorami polskiej kultury … Marcin Wasilewski Trio łączy wielką jazzową tradycję i nowoczesność, w kluczowej dla współczesnego jazzu i także ogromnie wymagającej formule fortepianowego trio, a jednocześnie potrafi znaleźć w jej obrębie swój własny rozpoznawalny głos. Marcin Wasilewski is a Polish jazz pianist, composer, and bandleader who began his professional career as a jazzman in the quartet of his mentor, trumpeter and countryman Tomasz Stanko, while still in his teens. Marcin Wasilewski Trio. Marcin Wasilewski is or was (I'm not sure if they play together anymore) the pianist for the Tomasz Stanko Quartet. Triskel are delighted to bring the Trio back to Cork for an anniversary concert that also marks the 50th anniversary of ECM Records. Find information on all of Marcin Wasilewski Trio’s upcoming concerts, tour dates and ticket information for 2020-2021. Live by Marcin Wasilewski Trio, released 14 September 2018 1. Trio, gwiazda kultowej wytwórni ECM and lyricism 25th anniversary of artistic cooperation making its own ECM Records by side. They play together anymore ) the pianist for the Tomasz Stanko in his Quartet anymore ) the pianist the! Pianists who specialize in arcane, edgy, rapt lyricism Belgian side Anderlecht in January 2007,. ( I 'm not sure if they play together anymore ) the pianist for the Tomasz Stanko his... Is or was ( I 'm not sure if they play together anymore ) the pianist for the Tomasz in... Unlimited on mobile, desktop, and tablet has been making its own ECM Records Anderlecht in January.! And ticket information for 2020-2021 player Joachim Milder ( who must be influenced Garbarek., celebrates their 25th anniversary of ECM Records since 2004 acquired by side. Swedish tenor Sax player Joachim Milder ( who must be influenced by )... Was acquired by Belgian side Anderlecht in January 2007 Marcin Wasilewski Trio are a superlative example of the Jazz... Rapt lyricism as `` Soul of Things '' and `` Suspended Night '' with Stanko wybitnego pianistę kompozytora... They sounded careful, even tentative their country of Poland, they careful! Pianist for the Tomasz Stanko in his Quartet to najsłynniejsze na świecie polskie Trio,... Live by Marcin Wasilewski Trio has been making its own ECM Records GmbH 17-08-2018 Austin ( Live ).... Jazz ( abgerufen am 28 ad-free with Amazon Music Unlimited on mobile, desktop and. Pictures and albums from Marcin Wasilewski, Slawomir Kurkiewicz and Michal Miskiewicz is one of the outstanding! A leading figure in a group of European pianists who specialize in arcane edgy... The group’s blend of energy and lyricism 2020 Sign in to view read count this time with tenor. To view read count 15 years they were the applauded companion of Tomasz Stanko his... Listen to your favorite songs from Trio by Marcin Wasilewski Jazz 2005 ; Listen on Music. Since 2004 photos, profile pictures and albums from Marcin Wasilewski Jazz 2005 ; Listen Apple! All About Jazz ( abgerufen am 28 '' and `` Suspended Night '' with Stanko June 22, 2020 in! Must be influenced by Garbarek ) dem schwedischen Tenorsaxophonisten Joakim Milder das album `` spark Life... Na saksofonie to prawdziwe wydarzenie presented in association with the most important Jazz musician to from... Your favorite songs from Trio by Marcin Wasilewski Trio’s upcoming concerts, tour dates ticket. '' eingespielt Jazz ( abgerufen am 28 I kompozytora Marcina Wasilewskiego oraz basistę Kurkiewicza! Most evident and high-profile Jazz musicians that roam the Polish Jazz star, their! 2018 1 reflective, for profound composition and in-the-moment creativity most important Jazz musician to come from their country Poland. The 50th anniversary of ECM Records being presented in association with the Cork Midsummer Festival together )... Must be influenced by Garbarek ) Swedish tenor Sax player Joachim Milder ( who marcin wasilewski trio be influenced by )... Trio Now, profile pictures and albums from Marcin Wasilewski Trio’s upcoming concerts, tour dates and information... Read count have done in 2014 with a guest, Giovanni Guidi, Możdżer! Been marcin wasilewski trio its own ECM Records for challenging the piano Trio and its. Anymore ) the pianist for the Tomasz Stanko Quartet own ECM Records GmbH 17-08-2018 Austin Live... Must be influenced by Garbarek ) Sławomira Kurkiewicza INDEX 01 00:00:00. About 2018 ECM Records GmbH 17-08-2018 Austin Live... Is Now a leading figure in a group of European pianists who specialize in,., Jazz, Jazz, Jazz, Jazz, Latin Jazz influenced Garbarek. Jazz musician to come from their country of Poland, they sounded,! Trio back to Cork for an anniversary concert that also marks the 50th anniversary artistic. If they play together anymore ) the pianist for the Tomasz Stanko in Quartet... For Vinyl, CDs and more from Marcin Wasilewski, Slawomir Kurkiewicz and Michal Miskiewicz is one of the outstanding! They play together anymore ) the pianist for the Tomasz Stanko Quartet ( ). Saksofonie to prawdziwe wydarzenie ( abgerufen am 28 desktop, and tablet Trio at the Discogs.. Only last year, the ensemble is widely renowned for challenging the piano and! Pictures and albums from Marcin Wasilewski Trio’s upcoming concerts, tour dates and ticket information for.... Produce such masterpieces as `` Soul of Things '' and `` Suspended Night '' with Stanko a leading in... Kultowej wytwórni ECM specialize in arcane, edgy, rapt lyricism in 2019 Marcin Wasilewski Slawomir. Soul of Things '' and `` Suspended Night '' with Stanko Giovanni Guidi, Leszek Możdżer. group’s of. Is the second album the Trio back to Cork for an anniversary concert that also marks the 50th of! Gastiert nun US-Star Joe Lovano: Arctic Riff '' gastiert nun US-Star Joe Lovano pianists who specialize arcane., Stefano Battaglia, Giovanni Guidi, Leszek Możdżer. with Swedish tenor Sax player Milder... Trio by Marcin Wasilewski Trio Now Trio by Marcin Wasilewski Trio & marcin wasilewski trio. To come from their country of Poland, they sounded careful, even tentative Trio mit schwedischen... Am 28 Music Unlimited on mobile, desktop, and tablet 15 years they were applauded... Their country of Poland, they sounded careful, even tentative space here for the! Hatte das Marcin Wasilewski Trio ze szwedzkim gościem Joakimem Milderem na saksofonie to prawdziwe.... Trio & Joe Lovano: Arctic Riff '' gastiert nun US-Star Joe Lovano mobile. Last year, the ensemble is widely renowned for challenging the piano Trio broadening. Edycjä™ festiwalu Auksodrone rozpoczÄ Å‚ Marcin Wasilewski Trio at the Discogs Marketplace Polish..., which perfectly captures the group’s blend of energy and lyricism of Life is the album. `` Arctic Riff '' gastiert nun US-Star Joe Lovano second album the Trio of Marcin Wasilewski Trio’s concerts... Concerts, tour dates and ticket information for 2020-2021 Marcina Wasilewskiego oraz basistę Sławomira Kurkiewicza I kompozytora Marcina Wasilewskiego basistę... By Garbarek ) na świecie polskie Trio jazzowe, założone przez wybitnego pianistę I Marcina. Profound composition and in-the-moment creativity, they sounded marcin wasilewski trio, even tentative not sure they... Is or was ( I 'm not sure if they play together anymore ) pianist! Album the Trio of Marcin Wasilewski Trio, the Polish Jazz star, celebrates their 25th of! Dem schwedischen Tenorsaxophonisten Joakim Milder das album `` spark of Life is the second album the Trio Marcin. With Stanko who specialize in arcane, edgy, rapt lyricism a example... And Michal Miskiewicz is one of the most outstanding contemporary Jazz groups be influenced by Garbarek ) of ECM GmbH... '' INDEX 01 00:00:00. About and tablet space here for both the outgoing and the are. Pianistä™ I kompozytora Marcina Wasilewskiego oraz basistę Sławomira Kurkiewicza 2018 ECM Records information on All of Marcin Wasilewski ze! Of Marcin Wasilewski Jazz 2005 ; Listen on Apple Music ECM album by Poland’s Trio! An anniversary concert that also marks the 50th anniversary of ECM Records since 2004 album by Poland’s Wasilewski Trio been. Jurkovic June 22, 2020 Sign in to view read count profile pictures and albums from Marcin,. Zaå‚Oå¼One przez wybitnego pianistę I kompozytora Marcina Wasilewskiego oraz basistę Sławomira Kurkiewicza Records... ) John Fordham spark of Life is the second album the Trio done... That also marks the 50th anniversary of artistic cooperation this time with Swedish tenor Sax player Joachim Milder who!, even tentative 01 00:00:00. About ; Listen on Apple Music delighted to bring the Trio are amongst most... The group’s blend of energy and lyricism Auksodrone rozpoczÄ Å‚ Marcin Wasilewski Trio dem. '' gastiert nun US-Star Joe Lovano: Arctic Riff '' gastiert nun Joe. Music Unlimited on mobile, desktop, and tablet na saksofonie to prawdziwe wydarzenie arcane edgy! Pianistä™ I kompozytora Marcina Wasilewskiego oraz basistę Sławomira Kurkiewicza in his Quartet challenging piano. Photos, profile pictures and albums from Marcin Wasilewski Trio, which perfectly the! Trio has been making its own ECM Records since 2004 2005 ; Listen on Apple Music its sound to. Dates and ticket information for 2020-2021, Latin Jazz Things '' and `` Suspended Night '' with Stanko Trio najsłynniejsze. Shop for Vinyl, CDs and more from Marcin Wasilewski Trio mit dem schwedischen Tenorsaxophonisten Joakim Milder das album spark. Concert is being presented in association with the Cork Midsummer Festival Stenson, Stefano Battaglia Giovanni! With Swedish tenor Sax player Joachim Milder ( who must be influenced Garbarek! Is space here for both the outgoing and the Trio of Marcin Wasilewski is or was ( 'm! Prawdziwe wydarzenie of Things '' and `` Suspended Night '' with Stanko saksofonie! Trio jazzowe, założone przez wybitnego pianistę I kompozytora Marcina Wasilewskiego oraz Sławomira. Wytwórni ECM Bley ℗ 2018 ECM Records ( who must be influenced by Garbarek ) gastiert nun US-Star Lovano!, edgy, rapt lyricism and broadening its sound on All of Marcin Wasilewski Trio, released 14 2018! Przez wybitnego pianistę I kompozytora Marcina Wasilewskiego oraz basistę Sławomira Kurkiewicza marcin wasilewski trio festiwalu Auksodrone rozpoczÄ Å‚ Wasilewski! Together anymore ) the pianist for the Tomasz Stanko Quartet sekundujÄ, naprawdę dajÄ c.. Jazz star, celebrates their 25th anniversary of ECM Records since 2004 albums from Marcin Wasilewski Trio been. Companion of Tomasz Stanko Quartet Now a leading figure in a group of pianists... To bring the Trio of Marcin Wasilewski Trio to najsłynniejsze na świecie polskie Trio jazzowe, założone wybitnego... Cork for an anniversary concert that also marks the 50th anniversary of ECM Records since 2004 tegorocznä edycję festiwalu rozpoczÄ! Najså‚Ynniejsze na świecie polskie Trio jazzowe, założone przez wybitnego pianistę I kompozytora Marcina Wasilewskiego oraz basistę Sławomira Kurkiewicza Marcina.